#TITLE:Love Without Mercy;
#SUBTITLE:;
#ARTIST:Jolin Tsai;
#TITLETRANSLIT:Love Without Mercy;
#SUBTITLETRANSLIT:;
#ARTISTTRANSLIT:Thai Y Lam;
#CREDIT:Chu Nhat , 12-4-2009;
#BANNER:Love Without Mercy-bn.png;
#BACKGROUND:Love Without Mercy-bg.png;
#LYRICSPATH:;
#CDTITLE:pm4cd.png;
#MUSIC:Love Without Mercy.mp3;
#OFFSET:0.900;
#SAMPLESTART:67.000;
#SAMPLELENGTH:20.000;
#SELECTABLE:YES;
#BPMS:0.000=132.000;
#STOPS:;
#BGCHANGES:;
// cache tags:
#FIRSTBEAT:4.000;
#LASTBEAT:502.000;
#SONGFILENAME:Songs/Lon`/Love Without Mercy/Love Without Mercy.sm;
#HASMUSIC:1;
#HASBANNER:1;
#MUSICLENGTH:233.136;
// end cache tags

//---------------dance-single - ----------------
#NOTES:
     dance-single:
     :
     Hard:
     15:
     1.000,1.000,1.000,0.665,0.219,978.000,490.000,155.000,0.000,16.000:
0000
0000
0000
0000
,
0011
1000
0100
1000
0011
1000
0100
1000
,
0011
1000
0100
1000
0011
1000
0100
1000
,
0011
0000
1000
0000
0100
0000
1000
0000
0011
0000
1000
0000
0100
0100
0100
0100
,
0100
0100
0100
0100
0100
0100
0100
0100
0100
0100
0100
0100
0110
0000
0000
0000
,
1010
0100
0010
0001
0010
0100
1001
0000
,
0101
0010
0100
1000
0100
0010
1100
0000
,
0011
1000
0100
0010
0001
0010
1001
0000
,
0110
0000
0001
0000
0010
0000
1100
0000
1100
0000
0010
0000
0101
0000
1000
0100
,
0011
0000
1000
0000
0100
0000
0010
0000
0001
0000
0010
0000
0101
0000
0001
0010
,
1100
0000
0010
0000
0001
0000
0010
0000
0100
0000
1000
0000
0101
0000
1000
0100
,
1010
0000
0100
0000
1000
0000
0000
0000
0001
0000
0010
0000
0101
0001
0001
0001
,
0001
0000
0001
0000
0001
0000
0001
0000
0001
0010
0100
1000
0100
0010
0001
0010
0100
1000
0100
0010
0100
0010
0001
0010
0100
0000
0100
0000
0100
0000
0100
0000
,
0100
0100
0100
0100
0100
0100
0100
0100
0100
0100
0100
0100
1100
0000
0000
0000
,
0011
0100
0110
1000
0101
0010
1100
0000
,
0110
0010
1100
0100
0101
0010
1001
0000
,
1010
0010
1100
0100
0011
0100
1001
0000
,
0011
0100
0110
0010
0011
1000
0110
0000
,
1100
0010
0101
0010
1001
0010
1100
0000
,
0011
1000
0110
1000
0101
0010
1100
0000
,
1100
0001
1010
0000
1010
0001
1100
0000
,
1100
0001
1110
0000
0111
0000
1100
1000
,
1100
1000
1100
1000
1100
1000
1100
1000
,
1100
1000
1100
1000
1100
0100
0011
0001
,
0011
0001
0011
0001
0011
0001
0011
0001
,
0011
0001
0011
0010
0110
1000
1001
0100
,
0101
0100
0101
0100
0101
0100
0101
0100
,
0101
0100
0101
0100
0101
0001
1010
1000
,
1010
1000
1010
1000
1010
1000
1100
1000
,
1010
1000
1100
1000
1010
0010
0011
1000
,
0101
0010
1100
0001
0110
0010
1100
0100
,
0101
0010
1001
0001
1100
0010
1010
0100
,
0101
0010
1001
0010
0011
1000
0110
1000
,
0101
0001
1010
0100
1100
0010
1010
0001
,
0110
0100
1100
0010
0011
0100
0101
0010
,
0110
1000
0011
0100
1010
0010
1001
0100
,
0011
0000
0010
0000
1001
0000
0100
0000
0011
0000
0001
0000
0101
0101
0101
0101
,
0101
0101
0101
0101
0111
0101
0101
0101
0111
0101
0101
0101
0011
0000
0000
0000
,
1100
0110
1001
0101
0011
0110
1100
0000
,
0011
0110
1001
1010
0101
1010
1100
0000
,
0101
1010
0110
1100
0011
1001
0110
0000
,
1100
0110
1001
0101
0011
1100
0110
0000
,
1010
0110
0011
0110
1100
1001
0101
0000
,
0011
0000
1100
0000
0110
0000
1001
0000
0101
0000
0011
0000
1100
0001
0010
0000
,
0110
0001
1000
0000
0101
0010
1000
0010
0100
0001
0010
0000
1001
0010
0100
0010
,
0001
0100
0010
0100
1000
0000
1000
0000
1100
0000
1000
0000
1010
0000
0000
0000
,
0011
0100
1001
0100
1010
0001
0011
0000
,
1001
0100
0011
0010
1010
0100
0110
0000
,
0101
0100
0011
0010
1100
0010
0110
0000
,
1100
0010
1001
0100
1100
0001
1001
0000
,
0011
0100
1010
0100
0110
0001
0011
0000
,
1100
0001
1001
0001
1010
0100
0011
0000
,
0011
1000
0101
1000
0110
0100
0011
0000
,
0011
0100
1001
0010
0110
0100
2020
3030
,
2020
0000
3030
0000
0202
0000
0303
0000
0202
0303
0202
0303
0000
0000
2200
3300
,
2200
3300
0000
0000
0202
0303
1000
0000
0202
0303
2020
3030
0101
0000
0220
0330
,
0220
0330
0000
0000
2002
0000
3003
0000
2002
3003
2002
3003
0000
0000
0022
0033
,
2200
3300
0220
0330
2002
3003
0202
0303
2020
3030
0202
0303
2002
0000
3003
0000
,
2002
0000
3003
0000
0220
0000
0330
0000
0220
0330
0220
0330
0000
0000
2200
3300
,
2200
3300
0000
0000
0022
0033
0100
0000
0022
0033
2200
3300
1001
0000
0202
0303
,
0202
0303
0000
0000
0202
0000
0303
0000
0202
0000
0313
0000
2002
3003
2200
3300
,
0022
0033
0220
0330
2002
3003
2020
3030
0202
0303
0022
0033
1100
0000
0010
0000
,
0001
1100
0000
0000
0010
0000
0101
1000
,
0010
0101
0000
0000
1000
0000
0011
0100
,
1000
0011
0000
0000
0001
0000
0110
1000
,
0001
0000
0220
0000
1330
1000
0100
0100
0010
0010
0001
0001
1010
0000
0100
0000
,
0010
0100
0000
0101
0010
0000
1100
0001
,
0100
0001
0000
0110
1000
0000
1010
0001
,
0100
0010
0000
0101
0010
0000
0100
0010
,
0000
0100
0000
0101
0000
0101
1010
0100
,
0011
1000
0110
1000
0101
0010
0011
0100
,
0110
1000
0101
0010
1001
0100
1010
0010
,
0011
0100
0110
1000
1010
1000
1100
0100
,
0011
0010
1001
0010
1010
0100
0101
0010
,
1001
0010
1100
0001
0110
1000
0101
0010
,
1001
0100
0011
1000
0110
1000
0101
0010
,
1001
0001
1100
0100
1010
0001
2000
0000
,
0000
0000
0000
3000
0000
0000
0011
0100
,
1010
0100
0011
1000
0110
1000
0101
0000
,
1100
0100
0101
0010
0110
1000
0011
0000
,
1010
0010
1100
0100
0011
1000
0110
0001
,
1010
0010
1100
0100
0101
0010
1001
0000
,
1010
0010
1100
0100
1010
1000
1100
0000
,
0011
0000
0010
0000
1010
0000
0100
0000
1001
0000
0010
0000
0011
0100
1000
0000
,
0101
1000
0010
0000
1100
0010
0001
0100
1010
0100
1000
0000
0101
0010
0100
1000
,
0110
0001
1000
0100
1010
0000
0010
0000
0011
0000
0010
0000
1010
0000
0000
0000
,
0010
1100
0000
0000
0010
0000
1001
0000
,
0100
0000
0011
0000
0100
0001
1000
0001
0010
0100
1000
1000
1100
0000
0100
0010
,
0001
0000
1100
0000
0000
0000
0000
0000
0010
0000
0000
0000
0101
0000
0010
0100
,
1000
0000
0011
0000
0001
0010
0100
1000
0100
0010
0001
0001
1001
0000
0000
0000
,
0010
0101
0000
0000
1000
0000
0101
0000
,
1000
0000
0110
0000
0001
0010
0100
0010
0001
0010
0100
0100
0201
0000
0010
0000
,
1000
0000
0001
0000
0010
0000
1000
0000
0001
0000
0010
0000
1300
1000
1000
1000
,
1000
1000
1000
1000
1000
1000
1000
1000
1000
1000
1000
1000
1100
0000
0000
0000
,
0011
0100
1010
0010
1100
0100
1001
0000
,
1010
0010
1100
0001
0110
0010
1100
0000
,
1010
0010
0101
0100
0011
1000
0110
0000
,
1010
0100
1001
0010
1100
0100
0110
0000
,
1001
0001
1010
1000
1100
0100
0110
0000
,
0011
0001
1010
0010
0110
0100
0101
0000
,
0101
0010
1100
0000
1100
0010
0101
0000
,
0101
0010
1101
0000
1011
0000
2000
3000
,
2000
3000
0200
0300
0020
0030
0002
0003
0020
0030
0200
0300
2000
3000
0000
0000
,
0002
0003
0020
0030
0200
0300
2000
3000
0200
0300
0020
0030
0002
0003
0000
0000
,
0002
0003
0020
0030
0200
0300
0020
0030
0002
0003
0020
0030
0200
0300
0000
0000
,
0200
0300
2000
3000
0200
0300
0020
0030
0200
0300
0020
0030
0202
0303
0000
0000
,
0002
0003
0020
0030
0200
0300
2020
3030
0200
0300
0020
0030
2200
3300
0000
0000
,
0020
0030
0200
0300
0020
0030
0202
0303
0020
0030
0200
0300
2002
3003
0000
0000
,
2000
3000
0200
0300
0020
0030
2200
3300
0020
0030
0002
0003
1221
1331
1001
1001
,
1221
1331
1001
1001
1221
1331
1001
1001
1221
1331
1001
1001
1010
0000
0000
0000
,
1010
0110
1100
0011
0101
0110
1010
0000
,
1100
0011
0101
1001
1010
0110
1100
0000
,
0101
0011
1001
0110
1100
0110
1100
0000
,
1010
0110
0101
0011
0110
1100
0011
0000
,
1001
1010
1100
0110
0011
0101
1001
0000
,
0011
0000
0110
0000
1100
0000
1001
0000
0011
0000
1100
0000
1001
0010
0100
0000
,
1010
0100
1000
0000
0110
0001
0010
1000
0101
0010
0001
0000
1100
0010
1000
0100
,
0011
0100
1010
0010
1001
0100
0011
0000
,
1100
0001
0110
0010
1100
0100
0101
0000
,
1001
0010
1010
0100
0011
1000
0110
0000
,
1001
0010
1010
0100
0110
1000
1100
0000
,
0011
0010
1010
0001
0110
0100
1100
0000
,
1010
0011
1100
0101
0110
1010
1100
0000
,
1001
0110
1100
0011
1010
0101
1100
0000
,
1100
0110
0011
0000
0011
0110
1100
0000
,
1100
0110
1001
0000
1001
0000
0000
0000
;
